Sword of the Stranger (2007) [1080p x265 HEVC 10bit BluRay Dual Audio AAC 5.1] [Prof]

Torrent Details

Sword of the Stranger (2007) [1080p x265 HEVC 10bit BluRay Dual Audio AAC 5.1] [Prof]

NAME
Sword of the Stranger (2007) [1080p x265 HEVC 10bit BluRay Dual Audio AAC 5.1] [Prof]
CATEGORY
anime
INFOHASH
b1be8f1f7859a7d97ec70ebc5e807a9ab1d0382c
SIZE
3.01 GB in 6 files
ADDED
Uploaded on 2 years
Last Update
18 hours Update Tracker
SWARM
22 seeders & 0 peers
RATING
No votes yet.

Please login to vote for this torrent.


Description



Stranger: Mukou Hadan

Synopsis


In the Sengoku period of Japan, a young orphan named Kotarou and his dog Tobimaru steal from unsuspecting villagers in order to make ends meet. However, Kotarou is forced to remain on the run when he finds himself being hunted down by assassins sent by China's Ming Dynasty for mysterious reasons not involving his petty crimes.

Fortunately, the duo run into Nanashi, a ronin who has taken refuge in a small temple, when Kotarou is attacked and Tobimaru poisoned. Although the samurai saves the helpless pair from their pursuers, he feels that there is no need to help them further; but when offered a gem in exchange for his services as a bodyguard, he reluctantly accepts Kotarou's offer of employment—just until Tobimaru is healed and the two reach their destination. As the three set out on a perilous journey, it soon becomes evident that their path is riddled with danger, as the Ming Dynasty has now sent a terrifying swordsman after them to capture Kotarou and fulfill a certain prophecy.

[Written by MAL Rewrite]

Background

Stranger: Mukou Hadan won the award for Best Animated Feature at Brazil's International Fantastic Film Festival and was nominated for the same categories at the Asia Pacific Screen Awards and 81st Academy Awards. It also won the 2009 "Menzione Speciale" recognition at Italy's Future Film Festival.

Alternative Titles

English: Sword of the Stranger
Japanese: ストレンヂア -無皇刃譚-

Information

Type: Movie
Episodes: 1
Status: Finished Airing
Aired: Sep 29, 2007
Producers: Bandai Visual, Shochiku, Sony Music Entertainment, Hakuhodo DY Media Partners
Licensors: Funimation, Bandai Entertainment
Studios: Bones
Source: Original
Genres: Action, Adventure, Historical, Samurai
Duration: 1 hr. 43 min.
Rating: R - 17+ (violence & profanity)

MAL







Format                                   : Matroska
Format version                           : Version 4
File size                                : 3.01 GiB
Duration                                 : 1 h 42 min
Overall bit rate                         : 4 203 kb/s
Movie name                               : Sword of the Stranger
Encoded date                             : UTC 2019-09-30 15:13:03
Writing application                      : mkvmerge v36.0.0 ('Is That Jazz?') 64-bit
Writing library                          : libebml v1.3.9 + libmatroska v1.5.2

Video
ID                                       : 1
Format                                   : HEVC
Format/Info                              : High Efficiency Video Coding
Format profile                           : Main [email protected]@Main
Codec ID                                 : V_MPEGH/ISO/HEVC
Duration                                 : 1 h 42 min
Bit rate                                 : 2 471 kb/s
Width                                    : 1 920 pixels
Height                                   : 1 080 pixels
Display aspect ratio                     : 16:9
Frame rate mode                          : Constant
Frame rate                               : 23.976 (24000/1001) FPS
Color space                              : YUV
Chroma subsampling                       : 4:2:0
Bit depth                                : 10 bits
Bits/(Pixel*Frame)                       : 0.050
Stream size                              : 1.77 GiB (59%)
Writing library                          : x265 3.2+1-329345aea40f:[Windows][MSVC 1923][64 bit] 10bit
Encoding settings                        : cpuid=1111039 / frame-threads=3 / numa-pools=12 / wpp / no-pmode / no-pme / no-psnr / no-ssim / log-level=2 / input-csp=1 / input-res=1920x1080 / interlace=0 / total-frames=147560 / level-idc=0 / high-tier=1 / uhd-bd=0 / ref=4 / no-allow-non-conformance / no-repeat-headers / annexb / no-aud / no-hrd / info / hash=0 / no-temporal-layers / open-gop / min-keyint=23 / keyint=250 / gop-lookahead=0 / bframes=8 / b-adapt=2 / b-pyramid / bframe-bias=0 / rc-lookahead=80 / lookahead-slices=6 / scenecut=40 / radl=0 / no-splice / no-intra-refresh / ctu=64 / min-cu-size=8 / rect / no-amp / max-tu-size=32 / tu-inter-depth=1 / tu-intra-depth=1 / limit-tu=0 / rdoq-level=2 / dynamic-rd=0.00 / no-ssim-rd / signhide / no-tskip / nr-intra=0 / nr-inter=0 / no-constrained-intra / strong-intra-smoothing / max-merge=3 / limit-refs=3 / limit-modes / me=3 / subme=3 / merange=57 / temporal-mvp / no-hme / weightp / no-weightb / no-analyze-src-pics / deblock=0:0 / sao / no-sao-non-deblock / rd=4 / selective-sao=4 / no-early-skip / rskip / no-fast-intra / no-tskip-fast / no-cu-lossless / no-b-intra / no-splitrd-skip / rdpenalty=0 / psy-rd=0.30 / psy-rdoq=1.00 / no-rd-refine / no-lossless / cbqpoffs=0 / crqpoffs=0 / rc=crf / crf=18.0 / qcomp=0.60 / qpstep=4 / stats-write=0 / stats-read=0 / ipratio=1.40 / pbratio=1.30 / aq-mode=2 / aq-strength=1.00 / cutree / zone-count=0 / no-strict-cbr / qg-size=32 / no-rc-grain / qpmax=69 / qpmin=0 / no-const-vbv / sar=0 / overscan=0 / videoformat=5 / range=0 / colorprim=2 / transfer=2 / colormatrix=2 / chromaloc=0 / display-window=0 / cll=0,0 / min-luma=0 / max-luma=1023 / log2-max-poc-lsb=8 / vui-timing-info / vui-hrd-info / slices=1 / no-opt-qp-pps / no-opt-ref-list-length-pps / no-multi-pass-opt-rps / scenecut-bias=0.05 / no-opt-cu-delta-qp / no-aq-motion / no-hdr / no-hdr-opt / no-dhdr10-opt / no-idr-recovery-sei / analysis-reuse-level=5 / scale-factor=0 / refine-intra=0 / refine-inter=0 / refine-mv=1 / refine-ctu-distortion=0 / no-limit-sao / ctu-info=0 / no-lowpass-dct / refine-analysis-type=0 / copy-pic=1 / max-ausize-factor=1.0 / no-dynamic-refine / no-single-sei / no-hevc-aq / no-svt / no-field / qp-adaptation-range=1.00
Default                                  : Yes
Forced                                   : No

Audio #1
ID                                       : 2
Format                                   : AAC LC
Format/Info                              : Advanced Audio Codec Low Complexity
Codec ID                                 : A_AAC-2
Duration                                 : 1 h 42 min
Bit rate                                 : 907 kb/s
Channel(s)                               : 6 channels
Channel layout                           : C L R Ls Rs LFE
Sampling rate                            : 48.0 kHz
Frame rate                               : 46.875 FPS (1024 SPF)
Compression mode                         : Lossy
Delay relative to video                  : 9 ms
Stream size                              : 665 MiB (22%)
Language                                 : English
Default                                  : Yes
Forced                                   : No

Audio #2
ID                                       : 3
Format                                   : AAC LC
Format/Info                              : Advanced Audio Codec Low Complexity
Codec ID                                 : A_AAC-2
Duration                                 : 1 h 42 min
Bit rate                                 : 814 kb/s
Channel(s)                               : 6 channels
Channel layout                           : C L R Ls Rs LFE
Sampling rate                            : 48.0 kHz
Frame rate                               : 46.875 FPS (1024 SPF)
Compression mode                         : Lossy
Delay relative to video                  : 9 ms
Stream size                              : 597 MiB (19%)
Language                                 : Japanese
Default                                  : No
Forced                                   : No

Text #1
ID                                       : 4
Format                                   : PGS
Muxing mode                              : zlib
Codec ID                                 : S_HDMV/PGS
Codec ID/Info                            : Picture based subtitle format used on BDs/HD-DVDs
Duration                                 : 1 h 36 min
Bit rate                                 : 23.6 kb/s
Count of elements                        : 1675
Stream size                              : 16.3 MiB (1%)
Language                                 : English
Default                                  : No
Forced                                   : No

Text #2
ID                                       : 5
Format                                   : PGS
Muxing mode                              : zlib
Codec ID                                 : S_HDMV/PGS
Codec ID/Info                            : Picture based subtitle format used on BDs/HD-DVDs
Duration                                 : 1 h 31 min
Bit rate                                 : 1 129 b/s
Count of elements                        : 80
Stream size                              : 756 KiB (0%)
Language                                 : English
Default                                  : Yes
Forced                                   : No

Menu
00:00:00.000                             : en:Chapter 01
00:06:24.759                             : en:Chapter 02
00:12:40.468                             : en:Chapter 03
00:21:50.517                             : en:Chapter 04
00:30:03.301                             : en:Chapter 05
00:36:24.307                             : en:Chapter 06
00:41:36.785                             : en:Chapter 07
00:50:04.793                             : en:Chapter 08
00:57:44.252                             : en:Chapter 09
01:05:28.257                             : en:Chapter 10
01:10:15.711                             : en:Chapter 11
01:15:41.119                             : en:Chapter 12
01:21:51.781                             : en:Chapter 13
01:29:13.097                             : en:Chapter 14
01:37:40.771                             : en:Chapter 15

Source:



Next anime movie:  My Neighbor Totoro

Files in this torrent

FILENAMESIZE
Sword of the Stranger (2007) [1080p x265 HEVC 10bit BluRay Dual Audio AAC] [Prof].mkv3.01 GB

Discussion

Comments 0

Post Your Comment

Alternative Torrents for ''.

TORRENT NAMEADDEDSIZESEEDSPEERSHEALTH