Ghost in the Shell 2: Innocence (2004) [1080p x265 HEVC 10bit BD Dual Audio AAC 5.1] [Prof]

Torrent Details

Ghost in the Shell 2: Innocence (2004) [1080p x265 HEVC 10bit BD Dual Audio AAC 5.1] [Prof]

NAME
Ghost in the Shell 2: Innocence (2004) [1080p x265 HEVC 10bit BD Dual Audio AAC 5.1] [Prof]
CATEGORY
anime
INFOHASH
5ffd2ff249630bdb2c947b3e98d4c80ce108bb7b
SIZE
2.92 GB in 6 files
ADDED
Uploaded on 2 years
Last Update
3 days Update Tracker
SWARM
6 seeders & 0 peers
RATING
No votes yet.

Please login to vote for this torrent.


Description



Synopsis
With Major Motoko Kusanagi missing, Section 9's Batou is assigned to investigate a string of gruesome murders—seemingly at the hands of faulty gynoids, or sex robots. But when a faulty gynoid leaves Batou a cryptic message, he begins to question the cause of their malfunctions. Suspicions of politically motivated murder and an illegal "ghost" quickly crop up, drawing Batou and his partner Togusa into a perilous web of conspiracy.

As their investigation goes on, the line between man and machine continues to blur, and reality and perception become indistinguishable. Confronting strange and dangerous foes, Batou and Togusa explore a futuristic world filled with machines and living dolls but utterly devoid of humanity.

[Written by MAL Rewrite]

Background
Ghost in the Shell 2: Innocence was nominated for the Palme d'Or at the Cannes Film Festival in 2004, and is so far the only anime to have been nominated for this prestigious award.

Alternative Titles
English: Ghost in the Shell 2: Innocence
Japanese: イノセンス

Information
Type: Movie
Episodes: 1
Status: Finished Airing
Aired: Mar 6, 2004
Producers: Bandai Visual, Dentsu, Kodansha, d-rights, Tokuma Shoten, Nippon Television Network
Licensors: Funimation, Bandai Entertainment
Studios: Production I.G
Source: Manga
Genres: Military, Sci-Fi, Police, Psychological, Mecha
Duration: 1 hr. 39 min.
Rating: R - 17+ (violence & profanity)

MAL







Format : Matroska
Format version : Version 4
File size : 2.92 GiB
Duration : 1 h 39 min
Overall bit rate : 4 197 kb/s
Movie name : Ghost in the Shell 2 Innocence
Encoded date : UTC 2019-08-29 04:35:03
Writing application : mkvmerge v36.0.0 ('Is That Jazz?') 64-bit
Writing library : libebml v1.3.9 + libmatroska v1.5.2

Video
ID : 1
Format : HEVC
Format/Info : High Efficiency Video Coding
Format profile : Main [email protected]@Main
Codec ID : V_MPEGH/ISO/HEVC
Duration : 1 h 39 min
Bit rate : 2 365 kb/s
Width : 1 920 pixels
Height : 1 080 pixels
Display aspect ratio : 16:9
Frame rate mode : Constant
Frame rate : 23.976 (24000/1001) FPS
Color space : YUV
Chroma subsampling : 4:2:0
Bit depth : 10 bits
Bits/(Pixel*Frame) : 0.048
Stream size : 1.65 GiB (56%)
Writing library : x265 3.1+11-de920e0a3183:[Windows][MSVC 1922][64 bit] 10bit
Encoding settings : cpuid=1111039 / frame-threads=3 / numa-pools=12 / wpp / no-pmode / no-pme / no-psnr / no-ssim / log-level=2 / input-csp=1 / input-res=1920x1080 / interlace=0 / total-frames=143376 / level-idc=0 / high-tier=1 / uhd-bd=0 / ref=4 / no-allow-non-conformance / no-repeat-headers / annexb / no-aud / no-hrd / info / hash=0 / no-temporal-layers / open-gop / min-keyint=23 / keyint=250 / gop-lookahead=0 / bframes=8 / b-adapt=2 / b-pyramid / bframe-bias=0 / rc-lookahead=80 / lookahead-slices=6 / scenecut=40 / radl=0 / no-splice / no-intra-refresh / ctu=64 / min-cu-size=8 / rect / no-amp / max-tu-size=32 / tu-inter-depth=1 / tu-intra-depth=1 / limit-tu=0 / rdoq-level=2 / dynamic-rd=0.00 / no-ssim-rd / signhide / no-tskip / nr-intra=0 / nr-inter=0 / no-constrained-intra / strong-intra-smoothing / max-merge=3 / limit-refs=3 / limit-modes / me=3 / subme=3 / merange=57 / temporal-mvp / no-hme / weightp / no-weightb / no-analyze-src-pics / deblock=0:0 / sao / no-sao-non-deblock / rd=4 / no-early-skip / rskip / no-fast-intra / no-tskip-fast / no-cu-lossless / no-b-intra / no-splitrd-skip / rdpenalty=0 / psy-rd=0.30 / psy-rdoq=1.00 / no-rd-refine / no-lossless / cbqpoffs=0 / crqpoffs=0 / rc=crf / crf=21.0 / qcomp=0.60 / qpstep=4 / stats-write=0 / stats-read=0 / ipratio=1.40 / pbratio=1.30 / aq-mode=2 / aq-strength=1.00 / cutree / zone-count=0 / no-strict-cbr / qg-size=32 / no-rc-grain / qpmax=69 / qpmin=0 / no-const-vbv / sar=0 / overscan=0 / videoformat=5 / range=0 / colorprim=2 / transfer=2 / colormatrix=2 / chromaloc=0 / display-window=0cll=0,0 / min-luma=0 / max-luma=1023 / log2-max-poc-lsb=8 / vui-timing-info / vui-hrd-info / slices=1 / no-opt-qp-pps / no-opt-ref-list-length-pps / no-multi-pass-opt-rps / scenecut-bias=0.05 / no-opt-cu-delta-qp / no-aq-motion / no-hdr / no-hdr-opt / no-dhdr10-opt / no-idr-recovery-sei / analysis-reuse-level=5 / scale-factor=0 / refine-intra=0 / refine-inter=0 / refine-mv=0 / refine-ctu-distortion=0 / no-limit-sao / ctu-info=0 / no-lowpass-dct / refine-analysis-type=0 / copy-pic=1 / max-ausize-factor=1.0 / no-dynamic-refine / no-single-sei / no-hevc-aq / no-svt / no-field / qp-adaptation-range=1.00
Default : Yes
Forced : No

Audio #1
ID : 2
Format : AAC LC
Format/Info : Advanced Audio Codec Low Complexity
Codec ID : A_AAC-2
Duration : 1 h 39 min
Bit rate : 957 kb/s
Channel(s) : 6 channels
Channel layout : C L R Ls Rs LFE
Sampling rate : 48.0 kHz
Frame rate : 46.875 FPS (1024 SPF)
Compression mode : Lossy
Delay relative to video : 9 ms
Stream size : 682 MiB (23%)
Language : English
Default : Yes
Forced : No

Audio #2
ID : 3
Format : AAC LC
Format/Info : Advanced Audio Codec Low Complexity
Codec ID : A_AAC-2
Duration : 1 h 39 min
Bit rate : 861 kb/s
Channel(s) : 6 channels
Channel layout : C L R Ls Rs LFE
Sampling rate : 48.0 kHz
Frame rate : 46.875 FPS (1024 SPF)
Compression mode : Lossy
Delay relative to video : 9 ms
Stream size : 614 MiB (21%)
Language : Japanese
Default : No
Forced : No

Text #1
ID : 4
Format : PGS
Muxing mode : zlib
Codec ID : S_HDMV/PGS
Codec ID/Info : Picture based subtitle format used on BDs/HD-DVDs
Duration : 1 h 33 min
Bit rate : 39.1 kb/s
Count of elements : 1725
Stream size : 26.1 MiB (1%)
Language : English
Default : No
Forced : No

Text #2
ID : 5
Format : PGS
Muxing mode : zlib
Codec ID : S_HDMV/PGS
Codec ID/Info : Picture based subtitle format used on BDs/HD-DVDs
Duration : 1 h 32 min
Bit rate : 3 346 b/s
Count of elements : 177
Stream size : 2.22 MiB (0%)
Language : English
Default : Yes
Forced : No

Menu
00:00:00.000 : en:Chapter 01
00:05:09.726 : en:Chapter 02
00:08:50.863 : en:Chapter 03
00:13:41.487 : en:Chapter 04
00:21:39.965 : en:Chapter 05
00:29:46.159 : en:Chapter 06
00:34:40.495 : en:Chapter 07
00:43:15.593 : en:Chapter 08
00:50:21.226 : en:Chapter 09
00:55:25.238 : en:Chapter 10
01:03:14.290 : en:Chapter 11
01:12:14.663 : en:Chapter 12
01:20:58.854 : en:Chapter 13
01:28:43.484 : en:Chapter 14
01:34:30.081 : en:Chapter 15

Source:



Next anime movie: 5 Centimeters per Second

Files in this torrent

FILENAMESIZE
Ghost in the Shell 2 - Innocence (2004) [1080p x265 HEVC 10bit BD Dual Audio AAC 5.1] [Prof].mkv2.92 GB

Discussion

Comments 0

Post Your Comment

Alternative Torrents for ''.

TORRENT NAMEADDEDSIZESEEDSPEERSHEALTH