Paprika (2006) [1080p x265 HEVC 10bit BD Dual Audio AAC 5.1] [Prof]

Torrent Details

Paprika (2006) [1080p x265 HEVC 10bit BD Dual Audio AAC 5.1] [Prof]

NAME
Paprika (2006) [1080p x265 HEVC 10bit BD Dual Audio AAC 5.1] [Prof]
CATEGORY
anime
INFOHASH
fe8957ca0d2952ff9b24492305a0dd71f01abdaf
SIZE
1.68 GB in 6 files
ADDED
Uploaded on 2 years
Last Update
6 days Update Tracker
SWARM
31 seeders & 1 peers
RATING
No votes yet.

Please login to vote for this torrent.


Description



Synopsis
The world of dreams can be an incredible window into the psyche, showing one's deepest desires, aspirations, and repressed memories. One hopeful tech lab has been developing the "DC Mini," a device with the power to delve into the dreams of others. Atsuko Chiba and Kosaku Tokita have been tirelessly working to develop this technology with the hopes of using it to deeply explore patients' minds and help cure them of their psychological disorders.

However, having access to the deepest corners of a person's mind comes with a tremendous responsibility. In the wrong hands, the DC Mini could be used as a form of psychological terrorism and cause mental breakdowns in the minds of targets. When this technology is stolen and people around them start acting strangely, Atsuko and Kosaku know they have a serious problem on their hands. Enlisting the help of Officer Konakawa, who has been receiving this experimental therapy, they search both the real and dream worlds for their mental terrorist.

[Written by MAL Rewrite]

Alternative Titles
English: Paprika
Japanese: パプリカ

Information
Type: Movie
Episodes: 1
Status: Finished Airing
Aired: Nov 25, 2006
Producers: Sony Pictures Entertainment, Cyclone Graphics
Licensors: None found, add some
Studios: Madhouse
Source: Novel
Genres: Dementia, Fantasy, Horror, Mystery, Psychological, Sci-Fi, Thriller
Duration: 1 hr. 30 min.
Rating: R+ - Mild Nudity

MAL







Format : Matroska
Format version : Version 4
File size : 1.68 GiB
Duration : 1 h 30 min
Overall bit rate : 2 651 kb/s
Encoded date : UTC 2019-08-13 01:35:39
Writing application : mkvmerge v30.1.0 ('Forever And More') 64-bit
Writing library : libebml v1.3.6 + libmatroska v1.4.9

Video
ID : 1
Format : HEVC
Format/Info : High Efficiency Video Coding
Format profile : Main [email protected]@Main
Codec ID : V_MPEGH/ISO/HEVC
Duration : 1 h 30 min
Bit rate : 1 389 kb/s
Width : 1 920 pixels
Height : 1 080 pixels
Display aspect ratio : 16:9
Frame rate mode : Constant
Frame rate : 23.976 (24000/1001) FPS
Color space : YUV
Chroma subsampling : 4:2:0
Bit depth : 10 bits
Bits/(Pixel*Frame) : 0.028
Stream size : 900 MiB (52%)
Writing library : x265 3.1+10-459d3822c608:[Windows][MSVC 1922][64 bit] 10bit
Encoding settings : cpuid=1111039 / frame-threads=3 / numa-pools=12 / wpp / no-pmode / no-pme / no-psnr / no-ssim / log-level=2 / input-csp=1 / input-res=1920x1080 / interlace=0 / total-frames=130248 / level-idc=0 / high-tier=1 / uhd-bd=0 / ref=4 / no-allow-non-conformance / no-repeat-headers / annexb / no-aud / no-hrd / info / hash=0 / no-temporal-layers / open-gop / min-keyint=23 / keyint=250 / gop-lookahead=0 / bframes=8 / b-adapt=2 / b-pyramid / bframe-bias=0 / rc-lookahead=80 / lookahead-slices=6 / scenecut=40 / radl=0 / no-splice / no-intra-refresh / ctu=64 / min-cu-size=8 / rect / no-amp / max-tu-size=32 / tu-inter-depth=1 / tu-intra-depth=1 / limit-tu=0 / rdoq-level=2 / dynamic-rd=0.00 / no-ssim-rd / signhide / no-tskip / nr-intra=0 / nr-inter=0 / no-constrained-intra / strong-intra-smoothing / max-merge=3 / limit-refs=3 / limit-modes / me=3 / subme=3 / merange=57 / temporal-mvp / no-hme / weightp / no-weightb / no-analyze-src-pics / deblock=0:0 / sao / no-sao-non-deblock / rd=4 / no-early-skip / rskip / no-fast-intra / no-tskip-fast / no-cu-lossless / no-b-intra / no-splitrd-skip / rdpenalty=0 / psy-rd=0.30 / psy-rdoq=1.00 / no-rd-refine / no-lossless / cbqpoffs=0 / crqpoffs=0 / rc=crf / crf=20.0 / qcomp=0.60 / qpstep=4 / stats-write=0 / stats-read=0 / ipratio=1.40 / pbratio=1.30 / aq-mode=2 / aq-strength=1.00 / cutree / zone-count=0 / no-strict-cbr / qg-size=32 / no-rc-grain / qpmax=69 / qpmin=0 / no-const-vbv / sar=0 / overscan=0 / videoformat=5 / range=0 / colorprim=2 / transfer=2 / colormatrix=2 / chromaloc=0 / display-window=0cll=0,0 / min-luma=0 / max-luma=1023 / log2-max-poc-lsb=8 / vui-timing-info / vui-hrd-info / slices=1 / no-opt-qp-pps / no-opt-ref-list-length-pps / no-multi-pass-opt-rps / scenecut-bias=0.05 / no-opt-cu-delta-qp / no-aq-motion / no-hdr / no-hdr-opt / no-dhdr10-opt / no-idr-recovery-sei / analysis-reuse-level=5 / scale-factor=0 / refine-intra=0 / refine-inter=0 / refine-mv=0 / refine-ctu-distortion=0 / no-limit-sao / ctu-info=0 / no-lowpass-dct / refine-analysis-type=0 / copy-pic=1 / max-ausize-factor=1.0 / no-dynamic-refine / no-single-sei / no-hevc-aq / no-svt / no-field / qp-adaptation-range=1.00
Language : English
Default : Yes
Forced : No

Audio #1
ID : 13
Format : AAC LC
Format/Info : Advanced Audio Codec Low Complexity
Codec ID : A_AAC-2
Duration : 1 h 30 min
Bit rate : 636 kb/s
Channel(s) : 6 channels
Channel layout : C L R Ls Rs LFE
Sampling rate : 48.0 kHz
Frame rate : 46.875 FPS (1024 SPF)
Compression mode : Lossy
Delay relative to video : 5 ms
Stream size : 412 MiB (24%)
Language : Japanese
Default : No
Forced : No

Audio #2
ID : 14
Format : AAC LC
Format/Info : Advanced Audio Codec Low Complexity
Codec ID : A_AAC-2
Duration : 1 h 30 min
Bit rate : 473 kb/s
Channel(s) : 6 channels
Channel layout : C L R Ls Rs LFE
Sampling rate : 48.0 kHz
Frame rate : 46.875 FPS (1024 SPF)
Compression mode : Lossy
Delay relative to video : 15 ms
Stream size : 306 MiB (18%)
Language : English
Default : Yes
Forced : No

Text #1
ID : 2
Format : PGS
Muxing mode : zlib
Codec ID : S_HDMV/PGS
Codec ID/Info : Picture based subtitle format used on BDs/HD-DVDs
Duration : 1 h 24 min
Bit rate : 25.3 kb/s
Count of elements : 1618
Stream size : 15.4 MiB (1%)
Language : English
Default : No
Forced : No

Text #2
ID : 3
Format : PGS
Muxing mode : zlib
Codec ID : S_HDMV/PGS
Codec ID/Info : Picture based subtitle format used on BDs/HD-DVDs
Duration : 1 h 25 min
Bit rate : 32.6 kb/s
Count of elements : 2012
Stream size : 19.9 MiB (1%)
Language : English
Default : No
Forced : No

Text #3
ID : 4
Format : PGS
Muxing mode : zlib
Codec ID : S_HDMV/PGS
Codec ID/Info : Picture based subtitle format used on BDs/HD-DVDs
Duration : 1 h 29 min
Bit rate : 22.6 kb/s
Count of elements : 1630
Stream size : 14.5 MiB (1%)
Language : French
Default : No
Forced : No

Text #4
ID : 5
Format : PGS
Muxing mode : zlib
Codec ID : S_HDMV/PGS
Codec ID/Info : Picture based subtitle format used on BDs/HD-DVDs
Duration : 1 h 24 min
Bit rate : 26.6 kb/s
Count of elements : 1630
Stream size : 16.2 MiB (1%)
Language : Spanish
Default : No
Forced : No

Text #5
ID : 6
Format : PGS
Muxing mode : zlib
Codec ID : S_HDMV/PGS
Codec ID/Info : Picture based subtitle format used on BDs/HD-DVDs
Duration : 1 h 24 min
Bit rate : 22.1 kb/s
Count of elements : 1634
Stream size : 13.4 MiB (1%)
Language : Chinese
Default : No
Forced : No

Text #6
ID : 7
Format : PGS
Muxing mode : zlib
Codec ID : S_HDMV/PGS
Codec ID/Info : Picture based subtitle format used on BDs/HD-DVDs
Duration : 1 h 24 min
Bit rate : 35.2 kb/s
Count of elements : 1634
Stream size : 21.4 MiB (1%)
Language : Korean
Default : No
Forced : No

Text #7
ID : 8
Format : PGS
Muxing mode : zlib
Codec ID : S_HDMV/PGS
Codec ID/Info : Picture based subtitle format used on BDs/HD-DVDs
Duration : 1 h 24 min
Bit rate : 24.5 kb/s
Count of elements : 1628
Stream size : 14.9 MiB (1%)
Language : Portuguese
Default : No
Forced : No

Text #8
ID : 9
Format : PGS
Muxing mode : zlib
Codec ID : S_HDMV/PGS
Codec ID/Info : Picture based subtitle format used on BDs/HD-DVDs
Duration : 1 h 24 min
Bit rate : 21.9 kb/s
Count of elements : 1634
Stream size : 13.3 MiB (1%)
Language : Thai
Default : No
Forced : No

Text #9
ID : 10
Format : PGS
Muxing mode : zlib
Codec ID : S_HDMV/PGS
Codec ID/Info : Picture based subtitle format used on BDs/HD-DVDs
Duration : 1 h 30 min
Bit rate : 52.3 kb/s
Count of elements : 2940
Stream size : 33.8 MiB (2%)
Language : Spanish
Default : No
Forced : No

Text #10
ID : 11
Format : PGS
Muxing mode : zlib
Codec ID : S_HDMV/PGS
Codec ID/Info : Picture based subtitle format used on BDs/HD-DVDs
Duration : 1 h 30 min
Bit rate : 38.7 kb/s
Count of elements : 2866
Stream size : 25.0 MiB (1%)
Language : Korean
Default : No
Forced : No

Text #11
ID : 12
Format : PGS
Muxing mode : zlib
Codec ID : S_HDMV/PGS
Codec ID/Info : Picture based subtitle format used on BDs/HD-DVDs
Duration : 1 h 30 min
Bit rate : 51.3 kb/s
Count of elements : 2876
Stream size : 33.2 MiB (2%)
Language : Portuguese
Default : No
Forced : No

Source:



Files in this torrent

FILENAMESIZE
Paprika (2006) [1080p x265 HEVC 10bit BD Dual Audio AAC 5.1] [Prof].mkv1.68 GB

Discussion

Comments 0

Post Your Comment

Alternative Torrents for ''.

TORRENT NAMEADDEDSIZESEEDSPEERSHEALTH
2 years1.68 GB311
3 years2.63 GB249
11 months10.7 GB143
3 years3.2 GB73
2 years23.1 GB53
6 months8.52 GB30
3 years6.6 GB20
3 years704 MB20
1 year9.16 GB20
3 years2.28 GB21
3 years1.35 GB11
3 years1.26 GB10
3 years366 MB11
3 years1.95 GB10
3 years0 B10
3 years905 MB10
3 years6.69 GB10
1 year1.73 GB10
3 years2.62 GB10
1 year1.93 GB10
3 years4.36 GB10
3 years8.85 GB10
3 years3.84 GB10
3 years16.5 GB01
3 years1.1 GB00