Scam 1992 - The Harshad Mehta Story (2020) S01 REPACK Hindi (1080p WEBRip x265 10bit) - [Musafirboy]

Torrent Details

Scam 1992 - The Harshad Mehta Story (2020) S01 REPACK Hindi (1080p WEBRip x265 10bit) - [Musafirboy]

NAME
Scam 1992 - The Harshad Mehta Story (2020) S01 REPACK Hindi (1080p WEBRip x265 10bit) - [Musafirboy]
CATEGORY
show
INFOHASH
30de10719a0d104b158fc09c4017e828c875629b
SIZE
6.46 GB in 6 files
ADDED
Uploaded on 11 months
Last Update
1 week Update Tracker
SWARM
0 seeders & 0 peers
RATING
No votes yet.

Please login to vote for this torrent.


Description






Scam 1992: The Harshad Mehta Story (2020) - Complete S01

IMDb  (9.6/10)


















REPACK Reason


Code:

New Source with AAC 253kbps Audio & S01E10 Subtitle fixed


Source Information


Code:

Scam.1992.The.Harshad.Mehta.Story.2020.S01.REPACK.1080p.WEB-DL.AAC.256.Kbps.H264.ESUB-Ranvijay (6.9 GB)



Media Information


Code:

General
Complete name : Scam.1992.The.Harshad.Mehta.Story.S01E01.WEBRip.REPACK.1080p.HEVC.10bit-[Musafirboy].mkv
Format : Matroska
Format version : Version 4
File size : 624 MiB
Duration : 49 min 38 s
Overall bit rate : 1 756 kb/s
Encoded date : UTC 2020-10-16 01:32:27

Video
Format : HEVC
Format/Info : High Efficiency Video Coding
Format profile : Main [email protected]@Main
Codec ID : V_MPEGH/ISO/HEVC
Duration : 49 min 38 s
Bit rate : 1 501 kb/s
Width : 1 920 pixels
Height : 960 pixels
Display aspect ratio : 2.000
Frame rate mode : Constant
Frame rate : 25.000 FPS
Color space : YUV
Chroma subsampling : 4:2:0
Bit depth : 10 bits
Bits/(Pixel*Frame) : 0.033
Stream size : 533 MiB (85%)
Writing library : x265 3.2+9-971180b100f8:[Windows][GCC 9.2.0][64 bit] 10bit
Encoding settings : cpuid=1111039 / frame-threads=4 / numa-pools=24 / wpp / no-pmode / no-pme / no-psnr / no-ssim / log-level=2 / input-csp=1 / input-res=1920x960 / interlace=0 / total-frames=74465 / level-idc=50 / high-tier=1 / uhd-bd=0 / ref=3 / no-allow-non-conformance / no-repeat-headers / annexb / no-aud / no-hrd / info / hash=0 / no-temporal-layers / open-gop / min-keyint=25 / keyint=250 / gop-lookahead=0 / bframes=4 / b-adapt=2 / b-pyramid / bframe-bias=0 / rc-lookahead=20 / lookahead-slices=6 / scenecut=40 / radl=0 / no-splice / no-intra-refresh / ctu=64 / min-cu-size=8 / no-rect / no-amp / max-tu-size=32 / tu-inter-depth=1 / tu-intra-depth=1 / limit-tu=0 / rdoq-level=0 / dynamic-rd=0.00 / no-ssim-rd / signhide / no-tskip / nr-intra=0 / nr-inter=0 / no-constrained-intra / strong-intra-smoothing / max-merge=3 / limit-refs=1 / no-limit-modes / me=1 / subme=5 / merange=57 / temporal-mvp / no-frame-dup / no-hme / weightp / no-weightb / no-analyze-src-pics / deblock=0:0 / sao / no-sao-non-deblock / rd=3 / selective-sao=4 / early-skip / rskip / no-fast-intra / no-tskip-fast / no-cu-lossless / b-intra / no-splitrd-skip / rdpenalty=0 / psy-rd=2.00 / psy-rdoq=0.00 / no-rd-refine / no-lossless / cbqpoffs=0 / crqpoffs=0 / rc=abr / bitrate=1500 / qcomp=0.60 / qpstep=4 / stats-write=0 / stats-read=2 / cplxblur=20.0 / qblur=0.5 / ipratio=1.40 / pbratio=1.30 / aq-mode=3 / aq-strength=0.30 / cutree / zone-count=0 / no-strict-cbr / qg-size=32 / no-rc-grain / qpmax=69 / qpmin=0 / no-const-vbv / sar=0 / overscan=0 / videoformat=5 / range=0 / colorprim=1 / transfer=1 / colormatrix=1 / chromaloc=0 / display-window=0 / cll=0,0 / min-luma=0 / max-luma=1023 / log2-max-poc-lsb=8 / vui-timing-info / vui-hrd-info / slices=1 / no-opt-qp-pps / no-opt-ref-list-length-pps / no-multi-pass-opt-rps / scenecut-bias=0.05 / no-opt-cu-delta-qp / no-aq-motion / no-hdr / no-hdr-opt / no-dhdr10-opt / no-idr-recovery-sei / analysis-reuse-level=5 / scale-factor=0 / refine-intra=0 / refine-inter=0 / refine-mv=1 / refine-ctu-distortion=0 / no-limit-sao / ctu-info=0 / no-lowpass-dct / refine-analysis-type=0 / copy-pic=1 / max-ausize-factor=1.0 / no-dynamic-refine / no-single-sei / no-hevc-aq / no-svt / no-field / qp-adaptation-range=1.00
Color range : Limited
Color primaries : BT.709
Transfer characteristics : BT.709
Matrix coefficients : BT.709
DATE_TAGGED : 2020-10-14 23:45:04.867
Encoded by : [Musafirboy]

Audio
Format : AAC LC
Format/Info : Advanced Audio Codec Low Complexity
Codec ID : A_AAC-2
Duration : 49 min 38 s
Bit rate : 253 kb/s
Channel(s) : 2 channels
Channel layout : L R
Sampling rate : 48.0 kHz
Frame rate : 46.875 FPS (1024 SPF)
Compression mode : Lossy
Delay relative to video : 10 ms
Stream size : 90.0 MiB (14%)
Language : Hindi

Subtitle
Format : UTF-8
Codec ID : S_TEXT/UTF8
Codec ID/Info : UTF-8 Plain Text
Duration : 48 min 45 s
Bit rate : 89 b/s
Count of elements : 770
Stream size : 32.0 KiB (0%)
Language : English






Files in this torrent

FILENAMESIZE
Encoded by Musafirboy.txt397 B
Scam.1992.The.Harshad.Mehta.Story.S01E01.WEBRip.REPACK.1080p.HEVC.10bit-[Musafirboy].mkv624 MB
Scam.1992.The.Harshad.Mehta.Story.S01E02.WEBRip.REPACK.1080p.HEVC.10bit-[Musafirboy].mkv683 MB
Scam.1992.The.Harshad.Mehta.Story.S01E03.WEBRip.REPACK.1080p.HEVC.10bit-[Musafirboy].mkv668 MB
Scam.1992.The.Harshad.Mehta.Story.S01E04.WEBRip.REPACK.1080p.HEVC.10bit-[Musafirboy].mkv695 MB
Scam.1992.The.Harshad.Mehta.Story.S01E05.WEBRip.REPACK.1080p.HEVC.10bit-[Musafirboy].mkv666 MB
Scam.1992.The.Harshad.Mehta.Story.S01E06.WEBRip.REPACK.1080p.HEVC.10bit-[Musafirboy].mkv538 MB
Scam.1992.The.Harshad.Mehta.Story.S01E07.WEBRip.REPACK.1080p.HEVC.10bit-[Musafirboy].mkv539 MB
Scam.1992.The.Harshad.Mehta.Story.S01E08.WEBRip.REPACK.1080p.HEVC.10bit-[Musafirboy].mkv716 MB
Scam.1992.The.Harshad.Mehta.Story.S01E09.WEBRip.REPACK.1080p.HEVC.10bit-[Musafirboy].mkv730 MB
Scam.1992.The.Harshad.Mehta.Story.S01E10.WEBRip.REPACK.1080p.HEVC.10bit-[Musafirboy].mkv763 MB

Discussion

Comments 0

Post Your Comment

Alternative Torrents for ''.

TORRENT NAMEADDEDSIZESEEDSPEERSHEALTH
11 months4.1 GB17024
11 months3.04 GB215
11 months5.77 GB1623
11 months4.76 GB154
11 months4.15 GB62
11 months6.36 GB51
11 months2.68 GB43
2 years253 MB40
11 months74.2 MB30
3 years694 MB20
2 years143 MB10
2 years1003 KB10
11 months2.68 GB11
11 months54.9 MB10
3 years24.3 GB10
2 years4.54 GB10
1 year295 MB10
2 years447 MB10
11 months2.64 GB10
11 months3.94 GB10
3 years190 MB11
2 years453 MB10
3 years1.36 GB10
3 years294 MB10
2 years424 MB10